香农传[中文字幕].The.Bit.Player.2018.1080p.WEB-DL.H264.AAC-SONYHD 3.69GB 2018 欧美 其他 WEB-1080P

bt之家 25天前 7

完整标题:香农传[中文字幕].The.Bit.Player.2018.1080p.WEB-DL.H264.AAC-SONYHD 3.69GB



◎标  题 香农传
◎片  名 The Bit Player
◎年  代 2018
◎产  地 美国
◎类  别 纪录片 / 传记
◎语  言 英语
◎上映日期 2018-06-19(美国)
◎IMDb评分 7.2/10 (373人评价)
◎IMDb链接 https://www.imdb.com/title/tt5015534/
◎豆瓣评分 8.8/10 (605人评价)
◎豆瓣链接 https://movie.douban.com/subject/34806185/
◎演  员 约翰·哈顿 John Hutton
      朱迪思·爱薇 Judith Ivey
      杰克·索切特 Jack Sochet

◎简  介
    A film about Claude Shannon, the "Father of Information Theory"

##### MediaInfo ######
General
Complete name : The.Bit.Player.2018.1080p.WEB-DL.H264.AAC-SONYHD.mp4
Duration : 1 h 25 min
Overall bit rate : 6 144 kb/s

Video
ID : 1
Format : AVC
Format/Info : Advanced Video Codec
Format profile : High@L4
Format settings : CABAC / 4 Ref Frames
Format settings, CABAC : Yes
Format settings, Reference frames : 4 frames
Codec ID : avc1
Codec ID/Info : Advanced Video Coding
Duration : 1 h 25 min
Bit rate : 5 817 kb/s
Width : 1 920 pixels
Height : 1 080 pixels
Display aspect ratio : 16:9
Frame rate mode : Constant
Frame rate : 25.000 FPS
Color space : YUV
Chroma subsampling : 4:2:0
Bit depth : 8 bits
Scan type : Progressive
Bits/(Pixel*Frame) : 0.112
Stream size : 3.49 GiB (95%)
Writing library : BiliBili H264 Encoder v1.0
Codec configuration box : avcC

Audio
ID : 2
Format : AAC LC
Format/Info : Advanced Audio Codec Low Complexity
Codec ID : mp4a-40-2
Duration : 1 h 25 min
Bit rate mode : Constant
Bit rate : 320 kb/s
Channel(s) : 2 channels
Channel layout : L R
Sampling rate : 48.0 kHz
Frame rate : 46.875 FPS (1024 SPF)
Compression mode : Lossy
Stream size : 196 MiB (5%)
Default : Yes
Alternate group : 1


部分资源为软字幕,移动端推荐播放器:MxPlayer,nPlayer,infuse ,其他播放器请自行尝试。

部分资源为软字幕,电脑端推荐播放器:PotPlayer,完美解码,KMPLAYER,其他播放器请自行尝试。

下载端推荐纯BT下载软件:qBittorrent,Bitcomet,uTorrent ,其他下载软件请自行尝试。不支持吸血迅雷。


标签:
pFDScB6.jpg
最新回复 (0)
返回
发新帖

ヾ(・ω・`。)快来领券!