内华达搜熊犬[中文字幕].The.Bear.Hunting.Dogs.of.Nevada.2016.1080p.WEB-DL.H264.AAC-SONYHD 1 2016 其他 其他 WEB-1080P

bt之家 25天前 9

完整标题:内华达搜熊犬[中文字幕].The.Bear.Hunting.Dogs.of.Nevada.2016.1080p.WEB-DL.H264.AAC-SONYHD 1.32GB



◎标  题 内华达搜熊犬
◎片  名 The Bear Hunting Dogs of Nevada
◎年  代 2016
◎产  地 法国
◎类  别 纪录片
◎语  言 法语 / 德语 / 英语 / 西班牙语
◎IMDb链接 https://www.imdb.com/title//
◎豆瓣链接 https://movie.douban.com/subject/30488666/
◎片  长 52 分钟

◎简  介
    内华达山脉,在美国西部,一辆运送动物的车在路上,带着一名囚犯。他们冒险进入文明社会,是一头黑熊。一个特殊的狗品种会告诉它熊与人没有任何关系。它们是卡累利阿熊犬。它们过去是用来猎捕熊的,现在他们帮助拯救熊的生命。在内华达州,熊被释放而不是被射杀。这些黑熊必须从狗身上吸取重大教训。内华达州唯一的熊生物学家卡尔拉基住在这个州的高地,他的狗帮他驱赶熊。

##### MediaInfo ######
General
Complete name : The.Bear.Hunting.Dogs.of.Nevada.2016.1080p.WEB-DL.H264.AAC-SONYHD.mp4
Duration : 52 min 14 s
Overall bit rate : 3 617 kb/s

Video
ID : 1
Format : AVC
Format/Info : Advanced Video Codec
Format profile : High@L5
Format settings : CABAC / 6 Ref Frames
Format settings, CABAC : Yes
Format settings, Reference frames : 6 frames
Codec ID : avc1
Codec ID/Info : Advanced Video Coding
Duration : 52 min 14 s
Bit rate : 3 418 kb/s
Width : 1 920 pixels
Height : 1 080 pixels
Display aspect ratio : 16:9
Frame rate mode : Constant
Frame rate : 25.000 FPS
Color space : YUV
Chroma subsampling : 4:2:0
Bit depth : 8 bits
Scan type : Progressive
Bits/(Pixel*Frame) : 0.066
Stream size : 1.25 GiB (95%)
Color range : Limited
Color primaries : BT.709
Transfer characteristics : BT.709
Matrix coefficients : BT.709
Codec configuration box : avcC

Audio
ID : 2
Format : AAC LC
Format/Info : Advanced Audio Codec Low Complexity
Codec ID : mp4a-40-2
Duration : 52 min 14 s
Bit rate mode : Constant
Bit rate : 192 kb/s
Channel(s) : 2 channels
Channel layout : L R
Sampling rate : 48.0 kHz
Frame rate : 46.875 FPS (1024 SPF)
Compression mode : Lossy
Stream size : 71.7 MiB (5%)
Default : Yes
Alternate group : 1


部分资源为软字幕,移动端推荐播放器:MxPlayer,nPlayer,infuse ,其他播放器请自行尝试。

部分资源为软字幕,电脑端推荐播放器:PotPlayer,完美解码,KMPLAYER,其他播放器请自行尝试。

下载端推荐纯BT下载软件:qBittorrent,Bitcomet,uTorrent ,其他下载软件请自行尝试。不支持吸血迅雷。


标签:
pFDScB6.jpg
最新回复 (0)
返回
发新帖

ヾ(・ω・`。)快来领券!