杀戮演绎[中文字幕].The.Act.of.Killing.2012.DC.1080p.BluRay.x264.DTS-SONYHD 16.65GB 2012 其他 其他 BD-1080P

bt之家 25天前 8

完整标题:杀戮演绎[中文字幕].The.Act.of.Killing.2012.DC.1080p.BluRay.x264.DTS-SONYHD 16.65GB



◎标  题 杀戮演绎
◎译  名 杀戮行为 / 杀人一举(台) / 杀人凶戏(港)
◎片  名 The Act of Killing
◎年  代 2012
◎产  地 英国 / 丹麦 / 挪威
◎类  别 纪录片 / 历史 / 犯罪
◎语  言 印度尼西亚语 / 英语
◎上映日期 2012-08-31(特柳赖德电影节) / 2012-09-08(多伦多电影节)
◎IMDb评分 8.2/10 (40220人评价)
◎IMDb链接 https://www.imdb.com/title/tt2375605/
◎豆瓣评分 8.4/10 (9465人评价)
◎豆瓣链接 https://movie.douban.com/subject/11538029/
◎片  长 115分钟 / 159分钟(导演剪辑版)
◎导  演 约书亚·奥本海默 Joshua Oppenheimer
      克里斯汀·辛 Christine Cynn
◎演  员 安瓦尔·冈戈 Anwar Congo
      Syamsul Arifin Syamsul Arifin
      Haji Anif Haji Anif
      Sakhyan Asmara Sakhyan Asmara

◎简  介
    1965年,印尼政府被军政府推翻,那些反对军事独裁的人都被认定为“共产党人”,并遭遇了血腥屠杀,一年之内,就有超过100万“共产党人”丧命,其中就包括农民还有一些当地的华人。本片的主角Anwar Congo和他的朋友们就参与了当年的屠杀活动,他如今是印尼最大的准军事组织Pemuda Pancasila的元老人物。Anwar和他的朋友接受导演的邀请,在镜头前重新演绎当年他们是如何处死那些“共产党人”的,他们通过拍摄电影的方式,重现了当年的场景,再次拿起了那些沾满鲜血的用来勒死人的铁丝。Anwar讲述了他的故事,其中就包含着他年轻时候对美国黑帮电影的喜爱,而他所属的准军事组织Pemuda Pancasila虽然是维护国家安全的力量,恰恰也被人视为印尼最大的黑帮......

##### MediaInfo ######
General
Unique ID : 323518320803127821470290408007962222314 (0xF3635CB6782A300736CCAB1E4A3C5EEA)
Complete name : The.Act.of.Killing.2012.DC.1080p.BluRay.x264.DTS-SONYHD.mkv
Duration : 2 h 46 min
Overall bit rate : 14.3 Mb/s

Video
ID : 1
Format : AVC
Format/Info : Advanced Video Codec
Format profile : [email protected]
Format settings : CABAC / 4 Ref Frames
Format settings, CABAC : Yes
Format settings, Reference frames : 4 frames
Codec ID : V_MPEG4/ISO/AVC
Duration : 2 h 46 min
Bit rate : 12.8 Mb/s
Width : 1 920 pixels
Height : 1 080 pixels
Display aspect ratio : 16:9
Frame rate mode : Constant
Frame rate : 23.976 (24000/1001) FPS
Color space : YUV
Chroma subsampling : 4:2:0
Bit depth : 8 bits
Scan type : Progressive
Bits/(Pixel*Frame) : 0.257
Stream size : 14.8 GiB (89%)
Writing library : x264 core 164 r3085+55M 938b6d0 t_mod_New [(8 & 10)-bit@all X86_64]
Encoding settings : cabac=1 / ref=4 / deblock=1:-3:-3 / analyse=0x3:0x133 / me=umh / subme=11 / psy=1 / fade_compensate=0.00 / psy_rd=1.00:0.00 / mixed_ref=1 / me_range=48 / chroma_me=1 / trellis=2 / 8x8dct=1 / cqm=0 / deadzone=21,11 / fast_pskip=0 / chroma_qp_offset=-3 / threads=34 / lookahead_threads=8 / sliced_threads=0 / nr=0 / decimate=0 / interlaced=0 / bluray_compat=0 / constrained_intra=0 / fgo=0 / bframes=11 / b_pyramid=2 / b_adapt=2 / b_bias=0 / direct=3 / weightb=1 / open_gop=0 / weightp=2 / keyint=240 / keyint_min=1 / scenecut=40 / intra_refresh=0 / rc_lookahead=72 / rc=crf / mbtree=0 / crf=18.6500 / qcomp=0.62 / qpmin=0:0:0 / qpmax=69:69:69 / qpstep=4 / vbv_maxrate=62500 / vbv_bufsize=78125 / crf_max=0.0 / nal_hrd=none / filler=0 / ip_ratio=1.40 / pb_ratio=1.30 / aq=3:0.74 / aq-sensitivity=10.00 / aq-factor=1.00:1.00:1.00 / aq2=0 / aq3=0
Default : Yes
Forced : No

Audio
ID : 2
ID in the original source medium : 4352 (0x1100)
Format : DTS
Format/Info : Digital Theater Systems
Codec ID : A_DTS
Duration : 2 h 46 min
Bit rate mode : Constant
Bit rate : 1 509 kb/s
Channel(s) : 6 channels
Channel layout : C L R Ls Rs LFE
Sampling rate : 48.0 kHz
Frame rate : 93.750 FPS (512 SPF)
Bit depth : 24 bits
Compression mode : Lossy
Stream size : 1.76 GiB (11%)
Title : Indonesian
Language : Indonesian
Default : Yes
Forced : No
Original source medium : Blu-ray

Text #1
ID : 3
ID in the original source medium : 4608 (0x1200)
Format : PGS
Muxing mode : zlib
Codec ID : S_HDMV/PGS
Codec ID/Info : Picture based subtitle format used on BDs/HD-DVDs
Duration : 2 h 40 min
Bit rate : 36.6 kb/s
Frame rate : 0.325 FPS
Count of elements : 3132
Stream size : 42.0 MiB (0%)
Title : chs
Language : Chinese
Default : Yes
Forced : No
Original source medium : Blu-ray

Text #2
ID : 4
ID in the original source medium : 4609 (0x1201)
Format : PGS
Muxing mode : zlib
Codec ID : S_HDMV/PGS
Codec ID/Info : Picture based subtitle format used on BDs/HD-DVDs
Duration : 2 h 40 min
Bit rate : 38.0 kb/s
Frame rate : 0.325 FPS
Count of elements : 3132
Stream size : 43.6 MiB (0%)
Title : cht
Language : Chinese
Default : No
Forced : No
Original source medium : Blu-ray

Menu
00:00:00.000 : en:Chapter 01
00:11:45.663 : en:Chapter 02
00:23:13.266 : en:Chapter 03
00:33:09.487 : en:Chapter 04
00:43:38.657 : en:Chapter 05
00:53:57.859 : en:Chapter 06
01:09:13.607 : en:Chapter 07
01:30:14.367 : en:Chapter 08
01:48:19.284 : en:Chapter 09
02:07:40.152 : en:Chapter 10
02:28:49.503 : en:Chapter 11
02:43:48.318 : en:Chapter 12


部分资源为软字幕,移动端推荐播放器:MxPlayer,nPlayer,infuse ,其他播放器请自行尝试。

部分资源为软字幕,电脑端推荐播放器:PotPlayer,完美解码,KMPLAYER,其他播放器请自行尝试。

下载端推荐纯BT下载软件:qBittorrent,Bitcomet,uTorrent ,其他下载软件请自行尝试。不支持吸血迅雷。


标签:
pFDScB6.jpg
最新回复 (0)
返回
发新帖

ヾ(・ω・`。)快来领券!