流产热线[中文字幕].The.Abortion.Hotline.2015.1080p.WEB-DL.H264.AAC-SONYHD 1.03GB 2015 其他 其他 WEB-1080P

bt之家 25天前 6

完整标题:流产热线[中文字幕].The.Abortion.Hotline.2015.1080p.WEB-DL.H264.AAC-SONYHD 1.03GB



◎标  题 流产热线
◎片  名 the abortion hotline
◎年  代 2015
◎产  地 加拿大 / 智利
◎类  别 纪录片
◎语  言 西班牙语
◎IMDb链接 https://www.imdb.com/title/tt5143734/
◎豆瓣链接 https://movie.douban.com/subject/34955222/

##### MediaInfo ######
General
Complete name : The.Abortion.Hotline.2015.1080p.WEB-DL.H264.AAC-SONYHD.mp4
Duration : 57 min 4 s
Overall bit rate : 2 568 kb/s

Video
ID : 1
Format : AVC
Format/Info : Advanced Video Codec
Format profile : High@L4
Format settings : CABAC / 4 Ref Frames
Format settings, CABAC : Yes
Format settings, Reference frames : 4 frames
Codec ID : avc1
Codec ID/Info : Advanced Video Coding
Duration : 57 min 4 s
Bit rate : 2 369 kb/s
Width : 1 920 pixels
Height : 1 080 pixels
Display aspect ratio : 16:9
Frame rate mode : Variable
Frame rate : 23.976 (23976/1000) FPS
Minimum frame rate : 23.810 FPS
Maximum frame rate : 24.390 FPS
Color space : YUV
Chroma subsampling : 4:2:0
Bit depth : 8 bits
Scan type : Progressive
Bits/(Pixel*Frame) : 0.048
Stream size : 967 MiB (92%)
Writing library : BiliBili H264 Encoder v1.0
Color range : Limited
Color primaries : BT.709
Transfer characteristics : BT.709
Matrix coefficients : BT.709
Codec configuration box : avcC

Audio
ID : 2
Format : AAC LC
Format/Info : Advanced Audio Codec Low Complexity
Codec ID : mp4a-40-2
Duration : 57 min 4 s
Bit rate mode : Constant
Bit rate : 192 kb/s
Channel(s) : 2 channels
Channel layout : L R
Sampling rate : 48.0 kHz
Frame rate : 46.875 FPS (1024 SPF)
Compression mode : Lossy
Stream size : 78.4 MiB (7%)
Default : Yes
Alternate group : 1


部分资源为软字幕,移动端推荐播放器:MxPlayer,nPlayer,infuse ,其他播放器请自行尝试。

部分资源为软字幕,电脑端推荐播放器:PotPlayer,完美解码,KMPLAYER,其他播放器请自行尝试。

下载端推荐纯BT下载软件:qBittorrent,Bitcomet,uTorrent ,其他下载软件请自行尝试。不支持吸血迅雷。


标签:
pFDScB6.jpg
最新回复 (0)
返回
发新帖

ヾ(・ω・`。)快来领券!